FACE BOOK

電影播放的功能有問題

上一篇主題 下一篇主題 向下

電影播放的功能有問題

發表  marken 于 周四 3月 24, 2011 10:35 pm

今天發現了一個奇怪的現象,
我有一個影片,
在「電影」這個功能項下,是不能播放(也沒辦法預覽),
但是透過「檔案管理」這個功能,選到這個影片,就可以播放,也可以預覽。
這兩個功能對影片的處理,不是應該同一份程式碼...怎麼會有這樣的bug..
對了,我是卡莎0131版

\\192.168.0.22\hdd\movie\愛情藥不藥\Love.And.Other.Drugs.2010.720p.BRRip.XviD.AC3-FLAWL3SS.avi
General
Complete name : \\192.168.0.22\hdd\movie\愛情藥不藥\Love.And.Other.Drugs.2010.720p.BRRip.XviD.AC3-FLAWL3SS.avi
Format : AVI
Format/Info : Audio Video Interleave
Format profile : OpenDML
File size : 3.10 GiB
Duration : 1h 52mn
Overall bit rate : 3 956 Kbps
Writing application : AVI-Mux GUI 1.17.8.3, Feb 16 201019:42:50
Video #0
ID : 0
Format : MPEG-4 Visual
Format profile : Advanced Simple@L5
Format settings, BVOP : Yes
Format settings, QPel : No
Format settings, GMC : No warppoints
Format settings, Matrix : Default (H.263)
Muxing mode : Packed bitstream
Codec ID : XVID
Codec ID/Hint : XviD
Duration : 1h 52mn
Bit rate : 3 502 Kbps
Width : 1 280 pixels
Height : 688 pixels
Display aspect ratio : 1.860
Frame rate : 23.976 fps
Color space : YUV
Chroma subsampling : 4:2:0
Bit depth : 8 bits
Scan type : Progressive
Bits/(Pixel*Frame) : 0.166
Stream size : 2.75 GiB (89%)
Writing library : XviD 1.2.1 (UTC 2008-12-04)
Audio #1
ID : 1
Format : AC-3
Format/Info : Audio Coding 3
Mode extension : CM (complete main)
Codec ID : 2000
Duration : 1h 52mn
Bit rate mode : Constant
Bit rate : 448 Kbps
Channel(s) : 6 channels
Channel positions : Front: L C R, Side: L R, LFE
Sampling rate : 48.0 KHz
Bit depth : 16 bits
Stream size : 360 MiB (11%)
Alignment : Aligned on interleaves
Interleave, duration : 64 ms (1.53 video frames)
Interleave, preload duration : 192 ms
Title : audio

marken

文章數 : 4
注冊日期 : 2011-03-23

回頂端 向下

回復: 電影播放的功能有問題

發表  marken 于 周六 3月 26, 2011 9:52 pm

今天測試又沒問題了...怪了..
小弟是用 CyberSlim 的外接盒,是 日立的 1.5T SATA3的硬碟(電家建議的)..
不知道是不是這個原因....

marken

文章數 : 4
注冊日期 : 2011-03-23

回頂端 向下

回復: 電影播放的功能有問題

發表  比特達人 于 周五 4月 01, 2011 5:12 pm

您好,若是您方便的話,要請您提供您的器材,到我司維修部門做檢測。就達人目前看您所提供的media info看起來是正常的,要請您再測試看看。

_________________
如果還有其他問題需要諮詢,請撥打本公司客服專線:(02)82218500 #9,我們將有專人為您服務,或是您可以留下您的聯絡資料與大名,發訊息給我,我將留傳給工程人員備案,如果有訊息將會給您通知,謝謝。
avatar
比特達人
Admin

文章數 : 1133
注冊日期 : 2010-10-18

http://i-bt.888forum.net

回頂端 向下

上一篇主題 下一篇主題 回頂端


 
這個論壇的權限:
無法 在這個版面回復文章