FACE BOOK

IBT-1283PVR 1.99版韌體 MKV支援度測試

上一篇主題 下一篇主題 向下

IBT-1283PVR 1.99版韌體 MKV支援度測試

發表  比特達人 于 周六 1月 15, 2011 1:59 pm

達人日前收到一份測試用檔案,是關於新版的MKV檔案的播放,希望達人能幫他測試看看。
操作環境:IBT-1283PVR 藍光影視錄PVR2 韌體 v1.99
     音訊輸出:HDMI LPCM 2ch / SPDIF LPCM 2ch 使用IBT-20聲棒

Media Info:
General
UniqueID : 237389671592970115123328416455255018058 (0xB2979673913317C4B029D77762CA4A4A)
Complete name : I:\MOVIE\1080P\######.1080p.BluRay.x264-CiNEFiLE.mkv
Format : Matroska
File size : 7.94 GiB
Duration : 1h 51mn
Overall bit rate : 10.2 Mbps
Encoded date : UTC 2011-01-07 19:44:15
Writing application : mkvmerge v4.4.0 ('Die Wiederkehr') built on Oct 31 2010 21:52:48
Writing library : libebml v1.0.0 + libmatroska v1.0.0

Video
ID : 1
Format : AVC
Format/Info : Advanced Video Codec
Format profile : High@L4.0
Format settings, CABAC : Yes
Format settings, ReFrames : 5 frames
Muxing mode : Header stripping
Codec ID : V_MPEG4/ISO/AVC
Duration : 1h 51mn
Bit rate : 9 385 Kbps
Width : 1 920 pixels
Height : 800 pixels
Display aspect ratio : 2.40:1
Frame rate : 23.976 fps
Color space : YUV
Chroma subsampling : 4:2:0
Bit depth : 8 bits
Scan type : Progressive
Bits/(Pixel*Frame) : 0.255
Stream size : 7.29 GiB (92%)
Language : English

Audio
ID : 2
Format : AC-3
Format/Info : Audio Coding 3
Mode extension : CM (complete main)
Muxing mode : Header stripping
Codec ID : A_AC3
Duration : 1h 51mn
Bit rate mode : Constant
Bit rate : 640 Kbps
Channel(s) : 6 channels
Channel positions : Front: L C R, Side: L R, LFE
Sampling rate : 48.0 KHz
Bit depth : 16 bits
Compression mode : Lossy
Stream size : 509 MiB (6%)

Text
ID : 3
Format : UTF-8
Codec ID : S_TEXT/UTF8
Codec ID/Info : UTF-8 Plain Text
Language : English

================================================
播放正常,雙聲道輸出也沒問題,達人會再撥空測試HDMI輸出的狀況,謝謝各位。
avatar
比特達人
Admin

文章數 : 1133
注冊日期 : 2010-10-18

http://i-bt.888forum.net

回頂端 向下

上一篇主題 下一篇主題 回頂端


 
這個論壇的權限:
無法 在這個版面回復文章