FACE BOOK

一些MKV檔無法播放的問題

向下

一些MKV檔無法播放的問題

發表  dg23 于 周五 1月 07, 2011 7:56 am

比特數位您好:

在下是貴公司產品的忠實顧客,
從ZP-520T就已開始使用迄今,
今年趁著好市多特價,
推廌親友共買了5台的藍光影視錄PVR2.
(覺得自己好像變成業代了)

可以感受新機的便利與強悍功能,
不過有兩個MKV檔,無論是新舊機,都是有聲無影.
(新機有聲有字幕,但無影)

這兩個檔案分別是玩具總動員3 720P 與 劍雨720P,
檔案都只在5G以下,電腦都可以放;
PVR2韌體也是最新的1.97版.

不曉得有類似問題,
與相關解決方案嗎?

因為其中一位親戚,就是衝著玩具總動員3而買,
但現在檔案卻不能播,
實在對她很不好意思..




影像檔資訊擷取如下:

玩具總動員3

K:\動畫\Toy.Story.3.720p\1.mkv
General
Complete name : K:\動畫\Toy.Story.3.720p\1.mkv
Format : Matroska
File size : 4.37 GiB
Duration : 1h 42mn
Overall bit rate : 6 099 Kbps
Encoded date : UTC 2010-10-14 02:47:38
Writing application : mkvmerge v4.3.0 ('Escape from the Island') built on Sep 5 2010 10:30:51
Writing library : libebml v1.0.0 + libmatroska v1.0.0
Video #1
ID : 1
Format : AVC
Format/Info : Advanced Video Codec
Format profile : High@L4.1
Format settings, CABAC : Yes
Format settings, ReFrames : 4 frames
Muxing mode : Container profile=Unknown@4.1
Codec ID : V_MPEG4/ISO/AVC
Duration : 1h 42mn
Bit rate : 4 468 Kbps
Nominal bit rate : 4 591 Kbps
Width : 1 280 pixels
Height : 720 pixels
Display aspect ratio : 16:9
Frame rate : 23.976 fps
Resolution : 24 bits
Colorimetry : 4:2:0
Scan type : Progressive
Bits/(Pixel*Frame) : 0.202
Stream size : 3.20 GiB (73%)
Writing library : x264 core 107 r1745 4785e8e
Encoding settings : cabac=1 / ref=5 / deblock=1:0:0 / analyse=0x3:0x133 / me=umh / subme=7 / psy=1 / psy_rd=1.00:0.20 / mixed_ref=1 / me_range=16 / chroma_me=1 / trellis=1 / 8x8dct=1 / cqm=0 / deadzone=21,11 / fast_pskip=1 / chroma_qp_offset=-6 / threads=12 / sliced_threads=0 / nr=0 / decimate=1 / interlaced=0 / constrained_intra=0 / bframes=3 / b_pyramid=1 / b_adapt=1 / b_bias=0 / direct=3 / weightb=1 / open_gop=0 / weightp=0 / keyint=250 / keyint_min=23 / scenecut=40 / intra_refresh=0 / rc_lookahead=40 / rc=2pass / mbtree=1 / bitrate=4591 / ratetol=1.0 / qcomp=0.60 / qpmin=10 / qpmax=51 / qpstep=4 / cplxblur=20.0 / qblur=0.5 / ip_ratio=1.40 / aq=1:1.00
Audio #2
ID : 2
Format : DTS
Format/Info : Digital Theater Systems
Format profile : ES
Codec ID : A_DTS
Duration : 1h 42mn
Bit rate mode : Constant
Bit rate : 1 510 Kbps
Channel(s) : 6 channels
Channel positions : Front: L C R, Surround: L R, LFE
Sampling rate : 48.0 KHz
Resolution : 24 bits
Stream size : 1.08 GiB (25%)



劍雨

K:\電影\劍雨.mkv
General
Complete name : K:\電影\劍雨.mkv
Format : Matroska
File size : 4.37 GiB
Duration : 1h 59mn
Overall bit rate : 5 219 Kbps
Encoded date : UTC 2010-11-28 04:49:07
Writing application : mkvmerge v4.2.0 ('No Talking') built on Jul 28 2010 18:38:23
Writing library : libebml v1.0.0 + libmatroska v1.0.0
Video #1
ID : 1
Format : AVC
Format/Info : Advanced Video Codec
Format profile : High@L4.1
Format settings, CABAC : Yes
Format settings, ReFrames : 5 frames
Muxing mode : Container profile=Unknown@4.1
Codec ID : V_MPEG4/ISO/AVC
Duration : 1h 59mn
Bit rate : 4 475 Kbps
Nominal bit rate : 4 579 Kbps
Width : 1 280 pixels
Height : 544 pixels
Display aspect ratio : 2.35:1
Frame rate : 24.000 fps
Resolution : 24 bits
Colorimetry : 4:2:0
Scan type : Progressive
Bits/(Pixel*Frame) : 0.268
Stream size : 3.75 GiB (86%)
Writing library : x264 core 108 r1788 c764e29
Encoding settings : cabac=1 / ref=5 / deblock=1:-1:-1 / analyse=0x3:0x113 / me=umh / subme=7 / psy=1 / psy_rd=1.00:0.00 / mixed_ref=1 / me_range=16 / chroma_me=1 / trellis=1 / 8x8dct=1 / cqm=0 / deadzone=21,11 / fast_pskip=1 / chroma_qp_offset=-2 / threads=12 / sliced_threads=0 / nr=0 / decimate=1 / interlaced=0 / constrained_intra=0 / bframes=3 / b_pyramid=2 / b_adapt=2 / b_bias=0 / direct=3 / weightb=1 / open_gop=0 / weightp=2 / keyint=250 / keyint_min=24 / scenecut=40 / intra_refresh=0 / rc_lookahead=40 / rc=2pass / mbtree=1 / bitrate=4579 / ratetol=1.0 / qcomp=0.60 / qpmin=10 / qpmax=51 / qpstep=4 / cplxblur=20.0 / qblur=0.5 / vbv_maxrate=50000 / vbv_bufsize=50000 / ip_ratio=1.40 / aq=1:1.00 / nal_hrd=none
Language : Chinese
Audio #2
ID : 2
Format : AC-3
Format/Info : Audio Coding 3
Codec ID : A_AC3
Duration : 1h 59mn
Bit rate mode : Constant
Bit rate : 640 Kbps
Channel(s) : 6 channels
Channel positions : Front: L C R, Surround: L R, LFE
Sampling rate : 48.0 KHz
Stream size : 548 MiB (12%)
Language : Chinese
Text #3
ID : 3
Format : UTF-8
Codec ID : S_TEXT/UTF8
Codec ID/Info : UTF-8 Plain Text
Text #4
ID : 4
Format : UTF-8
Codec ID : S_TEXT/UTF8
Codec ID/Info : UTF-8 Plain Text
Language : Romanian

dg23

文章數 : 3
注冊日期 : 2011-01-07

回頂端 向下

回復: 一些MKV檔無法播放的問題

發表  比特達人 于 周五 1月 07, 2011 12:09 pm

您好,關於無法撥放的MKV檔案,近期之內會有新的更新檔上線,會新增新的MKV格式的支援,您可以透過免費更新韌體,取得新的功能,請您耐心等候,造成您的不便,還請見諒。
avatar
比特達人
Admin

文章數 : 1133
注冊日期 : 2010-10-18

http://i-bt.888forum.net

回頂端 向下

回復: 一些MKV檔無法播放的問題

發表  dg23 于 周五 1月 07, 2011 12:27 pm

謝謝,希望能在農曆年前看到新的韌體,
辛苦了^^

dg23

文章數 : 3
注冊日期 : 2011-01-07

回頂端 向下

回復: 一些MKV檔無法播放的問題

發表  比特達人 于 周六 1月 08, 2011 9:12 pm

您好,原定於1/7上線的IBT-1283PVR韌體1.99版,因檔案異常而暫時無法下載,待上班時間工程人員重新上傳,即可下載更新韌體,並取得新的檔案支援格式:『mkvmerge v4.2.0』,請您耐心等候,謝謝。
avatar
比特達人
Admin

文章數 : 1133
注冊日期 : 2010-10-18

http://i-bt.888forum.net

回頂端 向下

回復: 一些MKV檔無法播放的問題

發表  dg23 于 周一 1月 10, 2011 5:55 pm

更新韌體1.99後,
都可以看了!

字幕問題也解決,關機後重看(重新播放)也ok^^

謝謝~

dg23

文章數 : 3
注冊日期 : 2011-01-07

回頂端 向下

回頂端


 
這個論壇的權限:
無法 在這個版面回復文章